Вход
Интересное
Скачать док. фильм "Я сбежал: Настоящие побеги из тюрьмы. 2 cезон"

Я сбежал: Настоящие побеги из тюрьмы. 2 cезон

Голосов: 0
Постер Я сбежал: Настоящие побеги из тюрьмы. 2 cезон
Я сбежал: Настоящие побеги из тюрьмы. 2 cезон / I Escaped: Real Prison Breaks. Season 2
Год выпуска: 2011
Страна: США
Жанр: Документальный, криминал
Продолжительность: 12 x ~ 00:21:00
Перевод: Профессиональный (одноголосый закадровый)
Русские субтитры: нет

Описание: Программа «Я сбежал: Настоящие побеги из тюрьмы» рассказывает невероятные истории о самых громких тюремных побегах. Порой даже решетчатые окна, высокие изгороди из колючей проволоки и усиленная охрана не могут остановить преступника, решившего во что бы то ни стало вырваться на свободу.Посмотрите, на какие уловки идут беглецы, чтобы оказаться на воле, а также узнайте, что предпринимают охранники и полицейские в ответ на эти хитрости. Кто победит в каждом из этих противостояний? Узнайте из новой программы Discovery Channel!Телеканал: Discovery ChannelКачество: SATRip
Формат: AVI
Видеокодек: XviD
Аудиокодек: MP3Дополнительная информация: Это 2-ой сезон, 1-ый здесь, на английском языке: https://rutracker.org/forum/viewtopic.php?t=4506862 . На русский не переводился, т.к. не был показан на российском ТВВидео #1: 480x360 (1.33:1), 23.976 fps, XviD build 50 ~561 kbps avg, 0.14 bit/pixel
Видео #2: 634x360 (на скриншоте 640х360) (1.76:1), 25 fps, XviD build 50 ~855 kbps avg, 0.15 bit/pixel
Аудио: 44.100 kHz, MPEG Layer 3, 2 ch, ~128.00 kbps avg
Сэмпл: http:// СПАМОписание серий:
Серия 11
Жестокий убийца с сообщником выходят на свободу по тоннелю и совершают серию убийств в трех штатах США
Видео: 480x360 (1.33:1), 23.976 fps, XviD build 50 ~561 kbps avg, 0.14 bit/pixel
Аудио: 44.100 kHz, MPEG Layer 3, 2 ch, ~128.00 kbps avg

Скриншоты
MediaInfo
Общее
Полное имя : C:\Раздачи\Я сбежал. Настоящие побеги из тюрьмы\Я сбежал. Настоящие побеги из тюрьмы. Серия 11.avi
Формат : AVI
Формат/Информация : Audio Video Interleave
Размер файла : 116 Мбайт
Продолжительность : 21 м.
Общий поток : 755 Кбит/сек
Программа кодирования : MEncoder SVN-r29352(20090610-gcc4.3.3)
Библиотека кодирования : MPlayerВидео
Идентификатор : 0
Формат : MPEG-4 Visual
Профиль формата : Advanced Simple@L5
Параметр BVOP формата : 2
Параметр QPel формата : Нет
Параметр GMC формата : Без точки перехода
Параметр матрицы формата : Default (H.263)
Идентификатор кодека : XVID
Идентификатор кодека/Подсказка : XviD
Продолжительность : 21 м.
Битрейт : 615 Кбит/сек
Ширина : 480 пикселей
Высота : 360 пикселей
Соотношение сторон : 4:3
Частота кадров : 24,000 кадра/сек
Цветовое пространство : YUV
Субдискретизация насыщенности : 4:2:0
Битовая глубина : 8 бит
Тип развёртки : Прогрессивная
Метод сжатия : С потерями
Бит/(Пиксели*Кадры) : 0.148
Размер потока : 94,1 Мбайт (81%)
Библиотека кодирования : XviD 1.2.1 (UTC 2008-12-04)Аудио
Идентификатор : 1
Формат : MPEG Audio
Версия формата : Version 1
Профиль формата : Layer 3
Режим : Joint stereo
Расширение режима : MS Stereo
Идентификатор кодека : 55
Идентификатор кодека/Подсказка : MP3
Продолжительность : 21 м.
Вид битрейта : Постоянный
Битрейт : 128 Кбит/сек
Каналы : 2 канала
Частота : 44,1 КГц
Метод сжатия : С потерями
Задержка видео : 42 мс.
Размер потока : 19,6 Мбайт (17%)
Выравнивание : Соединение по промежуткам
Продолжительность промежутка : 26 мс. (0,63 видеокадр)
Время предзагрузки промежутка : 522 мс.
Библиотека кодирования : LAME3.98
Серия 12
Вооруженная охрана, колючая проволока и смертельно опасные крокодилы - не помеха целеустремленному арестанту, а также преступный Казанова использует силу обольщения чтобы открыть двери тюрьмы
Видео: 480x360 (1.33:1), 23.976 fps, XviD build 50 ~561 kbps avg, 0.14 bit/pixel
Аудио: 44.100 kHz, MPEG Layer 3, 2 ch, ~128.00 kbps avg

Скриншоты
MediaInfo
Общее
Полное имя : C:\Раздачи\Я сбежал. Настоящие побеги из тюрьмы\Я сбежал. Настоящие побеги из тюрьмы. Серия 12.avi
Формат : AVI
Формат/Информация : Audio Video Interleave
Размер файла : 118 Мбайт
Продолжительность : 21 м.
Общий поток : 768 Кбит/сек
Программа кодирования : MEncoder SVN-r29352(20090610-gcc4.3.3)
Библиотека кодирования : MPlayerВидео
Идентификатор : 0
Формат : MPEG-4 Visual
Профиль формата : Advanced Simple@L5
Параметр BVOP формата : 2
Параметр QPel формата : Нет
Параметр GMC формата : Без точки перехода
Параметр матрицы формата : Default (H.263)
Идентификатор кодека : XVID
Идентификатор кодека/Подсказка : XviD
Продолжительность : 21 м.
Битрейт : 628 Кбит/сек
Ширина : 480 пикселей
Высота : 360 пикселей
Соотношение сторон : 4:3
Частота кадров : 24,000 кадра/сек
Цветовое пространство : YUV
Субдискретизация насыщенности : 4:2:0
Битовая глубина : 8 бит
Тип развёртки : Прогрессивная
Метод сжатия : С потерями
Бит/(Пиксели*Кадры) : 0.151
Размер потока : 96,6 Мбайт (82%)
Библиотека кодирования : XviD 1.2.1 (UTC 2008-12-04)Аудио
Идентификатор : 1
Формат : MPEG Audio
Версия формата : Version 1
Профиль формата : Layer 3
Режим : Joint stereo
Расширение режима : MS Stereo
Идентификатор кодека : 55
Идентификатор кодека/Подсказка : MP3
Продолжительность : 21 м.
Вид битрейта : Постоянный
Битрейт : 128 Кбит/сек
Каналы : 2 канала
Частота : 44,1 КГц
Метод сжатия : С потерями
Задержка видео : 42 мс.
Размер потока : 19,7 Мбайт (17%)
Выравнивание : Соединение по промежуткам
Продолжительность промежутка : 26 мс. (0,63 видеокадр)
Время предзагрузки промежутка : 522 мс.
Свернуть поддиректории
Развернуть
Переключить
Увел./умен. окно
загружается...
Последние поблагодарившие

Скриншоты "Я сбежал: Настоящие побеги из тюрьмы. 2 cезон":

Скриншот 1 Я сбежал: Настоящие побеги из тюрьмы. 2 cезонСкриншот 2 Я сбежал: Настоящие побеги из тюрьмы. 2 cезонСкриншот 3 Я сбежал: Настоящие побеги из тюрьмы. 2 cезон
Просмотров535
Взят239
Скачан0 раз
Файлов12 файлов
Раздалokama
Размер1.43 GB
Добавлен2019-09-04 10:39:09

Список комментариев
Дополнительные тэги: Иллюминаты, Интернет, Истархов, Каддафи, Каратэ, КГБ, Климатический, Колесников, Комета, Коммуникация, Конгресс, Конституция, Конфессия, Королевский, Кошмар, Кредиты, Крещение, Кронштадтский, Крючков, Куликов, Кургинян

|